mplayer: problemas para abrir los files de sonido, funciona gnome-mplyaer, ¿por qué?

Soy nuevo en esta comunidad y esta es mi primera pregunta.

Estoy usando Debian 8.3 Jessie y tengo dos files de sonido a.mp3 y b.mp3 en mi disco duro. Estoy usando mplayer y gnome-mplayer para abrir estos files.

Adquirí ambos files de una fuente externa.

Problema:
Si abro a.mp3 en mplayer, la salida está distorsionada y tartamudeando + aquí y allá un tono alto (parece el file mp3 dañado). Sin embargo, si abro el file a.mp3 en GNOME-MPLAYER, se reproduce bien. El file b.mp3 no muestra este comportamiento y se reproduce bien en mplayer y gnome-mplayer.

También intenté convertir el file problemático ( a.mp3 ) en un file ogg con avconv, pero eso tampoco ayudó.

Abrir el file a.mp3 en iceweasle también funciona bien. El problema está limitado a mplayer solamente.

¿Qué estoy mal?

Metadatos de files:
a.mp3

 avprobe version 11.6-6:11.6-1~deb8u1, Copyright (c) 2007-2014 the Libav developers built on Mar 2 2016 23:00:02 with gcc 4.9.2 (Debian 4.9.2-10) [mp3 @ 0xd27d20] max_analyze_duration 5000000 reached Input #0, mp3, from 'a.mp3': Metadata: track : 1 Duration: 00:06:25.00, start: 0.000000, bitrate: 128 kb/s Stream #0.0: Audio: mp3, 48000 Hz, 2 channels, s16p, 128 kb/s Metadata: encoder : LAME3.99r 

b.mp3

 avprobe version 11.6-6:11.6-1~deb8u1, Copyright (c) 2007-2014 the Libav developers built on Mar 2 2016 23:00:02 with gcc 4.9.2 (Debian 4.9.2-10) [mp3 @ 0x122cd20] max_analyze_duration 5000000 reached Input #0, mp3, from 'b.mp3': Metadata: major_brand : dash minor_version : 0 compatible_brands: iso6mp41 encoder : Lavf56.25.101 Duration: 00:03:58.10, start: 0.000000, bitrate: 115 kb/s Stream #0.0: Audio: mp3, 44100 Hz, 2 channels, s16p, 115 kb/s Metadata: encoder : Lavc56.26 

Información solicitada: salida mplayer de jugar a.mp3

 MPlayer2 2.0-728-g2c378c7-4+b1 (C) 2000-2012 MPlayer Team Cannot open file '/home/mr/.mplayer/input.conf': No such file or directory Failed to open /home/mr/.mplayer/input.conf. Cannot open file '/etc/mplayer/input.conf': No such file or directory Failed to open /etc/mplayer/input.conf. Playing a.mp3. Detected file format: MP2/3 (MPEG audio layer 2/3) (libavformat) [mp3 @ 0x7fb48d85fb40]max_analyze_duration 5000000 reached [lavf] stream 0: audio (mp3), -aid 0 Clip info: track: 1 Load subtitles in . Selected audio codec: MPEG 1.0/2.0/2.5 layers I, II, III [mpg123] AUDIO: 48000 Hz, 2 ch, s16le, 128.0 kbit/8.33% (ratio: 16000->192000) AO: [pulse] 48000Hz 2ch s16le (2 bytes per sample) Video: no video Starting playback... 

Salida mplayer de jugar b.mp3

 Playing b.mp3. Detected file format: MP2/3 (MPEG audio layer 2/3) (libavformat) [mp3 @ 0x7f30481d9b40]max_analyze_duration 5000000 reached [lavf] stream 0: audio (mp3), -aid 0 Clip info: major_brand: dash minor_version: 0 compatible_brands: iso6mp41 encoder: Lavf56.25.101 Load subtitles in . Selected audio codec: MPEG 1.0/2.0/2.5 layers I, II, III [mpg123] AUDIO: 44100 Hz, 2 ch, s16le, 32.0 kbit/2.27% (ratio: 4000->176400) AO: [pulse] 44100Hz 2ch s16le (2 bytes per sample) Video: no video Starting playback... 

~ / .mplayer / config

 vo=gl 

EDITAR
El problema solo existe cuando reproduzco el file a.mp3 sobre la salida analógica del Thinkpad T420 mientras que un par de auriculares USB se conecta al mismo time y no se utiliza para ninguna reproducción. Espectrógrafo
Espectrógrafo superior: file a.mp3 cuando se reproduce sobre la salida analógica con auriculares USB enchufados (grabados desde la salida analógica). Observe el pico muy alto ligeramente arriba y el izquierdo a la flecha, eso es aproximadamente 8kHz.
Espectrógrafo inferior: file a.mp3 cuando se carga directamente en a.mp3 .

lsusb con auriculares
Bus 001 Device 003: ID 046d:0a45 Logitech, Inc

— EDITACIÓN IMPORTANTE —
a partir de ahora (2016-03-25) el problema se ha ido. Reproducir cualquier file mp3 funciona como debería sobre cualquier salida conectada a la computadora (auriculares USB, tarjeta de sonido USB, tarjeta de sonido interna). Sin embargo, no sé por qué …